#TITLE:第一天;
#SUBTITLE:;
#ARTIST:孙燕姿;
#TITLETRANSLIT:;
#SUBTITLETRANSLIT:;
#ARTISTTRANSLIT:;
#CREDIT:;
#BANNER:һ-logo.jpg;
#BACKGROUND:һ.jpg;
#LYRICSPATH:;
#CDTITLE:Lan.png;
#MUSIC:һ.mp3;
#OFFSET:-0.020;
#SAMPLESTART:100.000;
#SAMPLELENGTH:12.000;
#SELECTABLE:YES;
#BPMS:0.000=176.000;
#STOPS:;
#BGCHANGES:;
// cache tags:
#FIRSTBEAT:39.750;
#LASTBEAT:462.000;
#SONGFILENAME:Songs/Super Dancer Online/һ/һ.sm;
#HASMUSIC:1;
#HASBANNER:1;
#MUSICLENGTH:159.363;
// end cache tags

//---------------dance-single - sky----------------
#NOTES:
     dance-single:
     sky:
     Hard:
     9:
     0.698,1.000,1.000,0.138,0.135,582.000,172.000,22.000,0.000,29.000:

0000
0000
0000
0000
,
0000
0000
0000
0000
,
0000
0000
0000
0000
,
0000
0000
0000
0000
,
0000
0000
0000
0000
,
0000
0000
0000
0000
,
0000
0000
0000
0000
,
0000
0000
0000
0000
,
0000
0000
0000
0000
,
0000
0000
0000
0000
0000
0000
0000
0000
0000
0000
0000
0000
0000
0000
0000
0001
,
0010
0000
0001
0000
0000
0000
0100
0000
0010
0000
0010
0000
0010
0000
0000
0001
,
0010
0000
0001
0000
0000
0000
1000
0000
0100
0000
0100
0000
0000
0000
0000
0010
,
0100
0000
0010
0000
0000
0000
0010
0000
0001
0000
0001
0000
0000
0000
0000
0100
,
1000
0000
0100
0000
0000
0000
0100
0000
0010
0000
0010
0000
0010
0000
0010
0001
,
0010
0000
0001
0000
0000
0000
1000
0000
0100
0000
0100
0000
0100
0000
0000
0001
,
0010
0000
0001
0000
0000
0000
0100
0000
0010
0000
0010
0000
0000
0000
0000
0100
,
1000
0000
0100
0000
0000
0000
0010
0000
0001
0000
0001
0000
0000
0000
0000
0100
,
1000
0011
0001
0011
0001
0011
0001
0011
,
1011
0000
0100
0000
0100
0010
0100
0000
,
1000
0000
1000
0000
1000
0100
1000
0000
,
0010
0000
0010
0000
0010
0001
0010
0000
,
0001
0000
0001
0000
0001
0010
0001
0000
,
1010
0000
0100
0000
1010
0001
0100
0000
,
0101
0000
0010
0000
0101
1000
0010
0000
,
0110
0000
0010
0000
0110
0001
0100
0000
,
0011
0000
0100
0000
0110
0100
1000
0100
,
0111
0000
1100
0000
0110
0011
1100
0000
,
0011
0000
1010
0000
0101
1010
0101
0000
,
1100
0000
0110
0000
0101
1100
0101
0000
,
1100
0000
0110
0000
0011
1100
0011
0000
,
0011
0000
0110
0000
1100
0011
1100
0000
,
0110
0000
0011
0000
1100
0011
0110
0000
,
0110
0000
1100
0000
0011
1100
0011
0000
,
0101
0000
1010
0000
0101
1010
0101
0000
,
1000
0100
1000
0100
,
0100
0010
0100
0010
,
1000
0100
0010
0001
0010
0100
1000
0100
,
0020
0000
0000
0000
0000
0000
0130
1000
,
0110
0011
1100
0101
,
0110
1100
0110
1001
,
1010
0101
0011
1100
,
1010
0000
0101
0000
1100
0010
0010
0010
,
0020
0000
0000
0000
0130
0100
0000
0000
,
0011
0100
0010
1000
0001
0100
1000
0100
,
0001
0100
0001
1000
0100
0010
0001
0100
,
0001
0010
1000
0100
0010
0100
0001
0100
,
1000
0010
0001
0100
0010
0100
1000
0100
,
0001
0100
1000
0010
1000
0010
0001
0100
,
0001
1000
0010
0100
0010
1000
0001
0100
,
0010
0100
1000
0100
0001
0010
0001
1000
,
0100
0001
0010
1000
0011
0100
0110
0100
,
1010
0001
0110
0001
1100
0010
1010
0100
,
0101
0010
0110
0100
1100
0010
0011
0100
,
1010
0100
0011
0100
1100
0001
0110
0001
,
0110
0010
0101
1000
0110
0001
0110
1000
,
0011
0100
0110
1000
1100
0100
0110
0010
,
0011
0001
1010
0100
0101
0010
1100
0010
,
0011
0100
1100
0010
0011
0100
1100
0010
,
0011
0100
1010
0010
0101
0100
1100
0001
,
0101
0101
0000
1010
1010
0000
0101
0202
,
0000
1000
1000
1000
,
2303
0100
0100
0100
,
3000
0201
0001
0002
,
0300
1023
1000
2000
,
0030
3201
0001
0001
,
0302
0100
0100
0100
,
0203
0010
0010
0020
,
0300
0001
0001
0002
,
0030
1000
1000
2000
,
0003
0110
0110
0220
,
3000
0000
0000
0000
,
1000
0001
1000
0001
1000
0001
1000
0001
,
1000
0001
1001
1001
1001
1001
1001
1001
,
1331
0100
0010
0001
0010
0100
1000
0100
0010
0001
0010
0100
1000
0100
0010
0001
,
0010
0100
1000
0100
0010
0001
0010
0100
1000
0100
0010
0001
0010
0100
1000
0100
,
0010
0001
0001
0010
0100
1000
1000
0100
0010
0001
0001
0010
0100
1000
1000
0100
,
0010
0001
0001
0010
0100
1000
1000
0100
0010
0001
0001
0010
0100
1000
0100
0010
,
1000
0001
1000
0001
1000
0001
1000
0001
,
0100
0010
0100
0010
0100
0010
0100
0010
,
1000
0010
1000
0010
1000
0010
1000
0010
,
2000
0000
0000
0000
0000
0000
3010
0100
,
0010
0100
1000
0100
,
0010
0001
0100
0010
,
1000
0100
0010
0001
0010
0001
0010
0100
,
2000
0000
0000
0000
0000
0010
3001
0000
,
0110
0101
1100
0110
,
1100
0110
0011
0110
,
0110
0101
1010
0101
,
1010
0000
0000
0000
0110
0000
0000
0000
0011
1000
0100
1000
0100
1000
0000
0000
,
0000
0000
0000
0000
1000
0100
0000
0000
,
0010
0100
0010
1000
,
0100
0010
0001
0010
,
1000
0100
0010
0100
,
0001
0010
0100
0001
,
0100
1000
0010
1000
,
0001
0100
0010
1000
,
0100
0010
0001
0100
,
0010
0100
0001
1000
,
1100
1100
0000
0110
0110
0000
0011
0011
,
0000
0000
0000
0000
,
0011
0011
0000
0110
0110
0000
1100
1100
,
0000
0000
0000
0000
,
1010
1010
0000
0101
0101
0000
0110
0110
,
0000
0000
0000
0000
,
0010
0010
0010
0010
0010
0010
0010
0010
,
0100
0100
0100
0100
,
0001
0001
0001
0001
,
1000
1000
1000
1000
,
0010
0010
0010
0010
,
1100
1100
1100
1100
,
0011
0011
0011
0011
,
0110
0110
0110
0110
,
1010
1010
1010
1010
,
0222
0000
0000
0000
,
0000
0000
0000
0000
,
0000
0000
0333
0000
;
